Women in their 30’s matching with men in their 20’s, what do you expect and what conversations do you like having before going on a date?

2021.09.20 03:53 AZBornNRaised Women in their 30’s matching with men in their 20’s, what do you expect and what conversations do you like having before going on a date?

.
submitted by AZBornNRaised to hingeapp [link] [comments]


2021.09.20 03:53 Study-with-Koros [For Hire] Student and 'Part-Time Ghost Writer- Ready to Help in All Assignments, Essays, Clinical Reflections, Case Studies, Journal and Book Reviews. Discord: Grade_Miner#4737 Email: Mypenservices@Outlook.Com

HIRE MY WRITING SERVICES THIS FALL SEMESTER
Education
Master's degree in Business Administration (MBA), BA in English, and currently BSN Nursing student.
Charges
$15 per page
Professional Summary
Dedicated and passionate freelance lecturer of undergraduate and graduate level students for 6 years.
Accomplished researcher with exceptional relationship building and communication skills.
I provide value-addition:
· Content coverage - Well-researched, fully developed and supported paper
· Rubric –Follow the rubric as required
· Formatting – Utilize Ms. Word, Excel, PowerPoint in writing a paper
· Grammarly and Turnitin - Proof-reading and editing
· Word count – strictly meet the required number of words (+/- 10%)
· Exclusives – cover page, table of contents, executive summary, reference page
· Referencing – acknowledged sources adhering to APA (7th edition), MLA (8th edition), HAVARD, Chicago (17th edition), and OSCOLA
· PROMPT RESPONSE AND SUPPORT
FOUNDER: mypenservices.com
submitted by Study-with-Koros to domyexams [link] [comments]


2021.09.20 03:53 DrRavous A pendant I have. I really want a little silver chain for it!

A pendant I have. I really want a little silver chain for it! submitted by DrRavous to teenagers [link] [comments]


2021.09.20 03:53 Civort I'm a digital artist sharing 4 years of his artworks related with environments design!

I'm a digital artist sharing 4 years of his artworks related with environments design! submitted by Civort to NFT [link] [comments]


2021.09.20 03:53 svanapps r/ethereum - Bots on Ethereum

submitted by svanapps to CryptoToFuture [link] [comments]


2021.09.20 03:53 onemorepop Funko Pop! Animation: Wallace & Gromit - Gromit

Funko Pop! Animation: Wallace & Gromit - Gromit submitted by onemorepop to onemorepop [link] [comments]


2021.09.20 03:53 Despicableyou_ MY EYES

MY EYES submitted by Despicableyou_ to shitposting [link] [comments]


2021.09.20 03:53 thisonedudeyouknow straight down - over leveraged (Ever grande) (think about it)

straight down - over leveraged (Ever grande) (think about it) submitted by thisonedudeyouknow to Superstonk [link] [comments]


2021.09.20 03:53 wrechin Weird question but there's a different car in this one assigned parking spot every night

I don't want to be nosy or anything but I'm so curious. I live in an apartment complex that's pretty strict with assigned parking spaces but for about a year now the parking spot beside mine has had a different car almost every night. People tend to get pretty upset if you park in their space because there's so few free spots to park in. I don't think it's a case of people using it because they don't know better. What other reason could there be to have so many new cars taking up this assigned spot? I've never seen the same car twice. It's really baffling to me.
submitted by wrechin to NoStupidQuestions [link] [comments]


2021.09.20 03:53 youbeenfiredfromjoy what would happen to me if were to somehow assassinate the leader of your world most powerful country

let say even if there very protected. i assassinate them but i caught. what happens to me
submitted by youbeenfiredfromjoy to worldbuilding [link] [comments]


2021.09.20 03:53 ThatBad5348 Won with a little difference! :D

Won with a little difference! :D submitted by ThatBad5348 to PokemonUnite [link] [comments]


2021.09.20 03:53 Fungi_man Music is my passion and my stim, only problem is my singing voice appears to make others jealous but in return makes me anxious.

I love to sing it’s my passion my joy and my stim. I have never had any self confidence but apparently I have a good voice which makes others jealous which in turn makes me anxious. I cant tell if it’s jealousy or distaste for my vocal range. Been told by friend and those around me it’s jealousy but to me it feels like everyone just wants me to shut up and cant enjoy singing anymore even though it brings me more joy than anything else in life, I feel lost and dot know what to do. Feel like it be easiest to just shut up an never sing again.
submitted by Fungi_man to autism [link] [comments]


2021.09.20 03:53 wtfgonion Is it possible to come out without experience?

(19m) So I've just started to question if im bisexual recently, and Im kinda stuck between, "me being bi actually makes sense" and not being confident enough about it to just come out as bi to anyone or even myself.
That's because I've not actually tried to intentionally date or do anything sexual with a guy,I did some stuff with a guy once but that was when we were like 12 and It "just happened" spontaneously and I was very confused about it afterwards, I never actually knew what the other guy felt about it.
And on top of that I have some feelings of shame and guilt for feeling any degree attraction towards a guy, like it feels like my brain is doing something wrong and I need to resist it, maybe because the way I was raised,I live in a South American country which is very christian, and in a very christian family, so I grew up surrounded by the idea of anything that is not 100% straight is just bad and should be rejected and ridiculed.
The thing is that I'm in a loop in my mind, to come out confidently as bi I have to go and date a guy and have sex with him to be sure if I like it or not, but to go and actually do that I have to be confident enough about being bisexual to ask him out.
So I want to know if any of you all managed to "confirm" being bisexual before "testing it", if so, how did that happen?, what was the thing that made you "jump the fence" and finally come out?
submitted by wtfgonion to BisexualTeens [link] [comments]


2021.09.20 03:53 UnashamedlyAmature Bots have stopped working

I'm playing with Bobs mods and my construction bots have suddenly stopped working. I have a personal roboport and construction bots and in my inventory and they suddenly stopped working. I can place ghost entities and nothing happens, and this happened suddenly they stopped working while I was building something.
submitted by UnashamedlyAmature to factorio [link] [comments]


2021.09.20 03:53 ghettogamerz TENCHUZREAPERZ

submitted by ghettogamerz to tenchu [link] [comments]


2021.09.20 03:53 Lpfish369 IOS to Android

Has anyone switched from iOS to android? If so how was your experience and do you like it better? This may be what I’m doing when the pixel 6 pro comes out.
submitted by Lpfish369 to AndroidQuestions [link] [comments]


2021.09.20 03:53 crytoloover ⚠️🚨SAFEMOON PAPA REVEALS THE TRUTH BEHIND SAFEMOON DEV JOHN KARONY JUST GAVE US HINTS ABOUT IOS 🔥🚀

submitted by crytoloover to coinmarketbag [link] [comments]


2021.09.20 03:53 DrAwesomeX AjepArts hinting that the recent spray-painted Batsuit could indeed be Red Death

submitted by DrAwesomeX to DCEUleaks [link] [comments]


2021.09.20 03:53 Bunniesandblackmetal Darkthrone - Transilvanian Hunger (Remastered)

Darkthrone - Transilvanian Hunger (Remastered) submitted by Bunniesandblackmetal to SweetBunnyDarkMusic [link] [comments]


2021.09.20 03:53 DryAcanthopterygii70 Babatunde went missing. Now I know why.

Babatunde went missing. Now I know why. submitted by DryAcanthopterygii70 to ksi [link] [comments]


2021.09.20 03:53 icewing27 Hello just found this and was curious as to the reason

submitted by icewing27 to AFPD [link] [comments]


2021.09.20 03:53 crytoloover ECC Etherconnect Pancakeswap Withdrawal

submitted by crytoloover to coinmarketbag [link] [comments]


2021.09.20 03:53 BrazArg Meu cachorro está morrendo

É isso.
Levei no hospital veterinário algumas semanas atrás por que ela tinha ficado repentinamente muito quieta, sem vontade de sair de casa. Já no hospital, descobrimos sangramento interno no abdômen, daí começou a saga: bateria de exames, internação por dias, até que vem os resultados dos exames. Câncer. Já afetando o funcionamento de diferentes órgãos. Os médicos sugeriram cirurgias e acompanhamento, mas sabe quando você sente que não adianta mais? Que a coisa toda já está em um grau sem solução? Optamos por retirar ela para casa para ficar com a gente, pois ela ficou visivelmente com algum tipo de trauma por ter ficado internada sem nos ver por dias.
Agora já em casa, tomando diversos remédios para tentar amenizar as dores, com quase 16 anos e um olhar que ainda demonstra vontade de viver, vejo ela se deitar e respirar com dificuldade, escuto ela ganir de dor as vezes e me sinto extremamente triste e em conflito entre dar um fim as dores dela ou deixar a vida seguir seu curso a seu tempo...
submitted by BrazArg to desabafos [link] [comments]


2021.09.20 03:53 lastpassdeletedmyalt Concating video cuts out ~0.5s of video in beginning and end, can I avoid this?

I'm using the below command:

ffmpeg -i input1.mp4 -c copy -bsf:v h264_mp4toannexb -f mpegts intermediate1.ts ffmpeg -i input2.mp4 -c copy -bsf:v h264_mp4toannexb -f mpegts intermediate2.ts
ffmpeg -i "concat:intermediate1.ts|intermediate2.ts" -c copy -bsf:a aac_adtstoasc output.mp4
And the end result cuts out roughly 300-500ms of video. The audio is still there however.
Can I avoid this?
C:\Users\User>cd C:\Users\User\Videos\Apex Legends\_internal\ffmpeg C:\Users\User\Videos\Apex Legends\_internal\ffmpeg>ffmpeg -i input1.mp4 -c copy -bsf:v h264_mp4toannexb -f mpegts intermediate1.ts ffmpeg version 4.2.1 Copyright (c) 2000-2019 the FFmpeg developers built with gcc 9.1.1 (GCC) 20190807 configuration: --enable-gpl --enable-version3 --enable-sdl2 --enable-fontconfig --enable-gnutls --enable-iconv --enable-libass --enable-libdav1d --enable-libbluray --enable-libfreetype --enable-libmp3lame --enable-libopencore-amrnb --enable-libopencore-amrwb --enable-libopenjpeg --enable-libopus --enable-libshine --enable-libsnappy --enable-libsoxr --enable-libtheora --enable-libtwolame --enable-libvpx --enable-libwavpack --enable-libwebp --enable-libx264 --enable-libx265 --enable-libxml2 --enable-libzimg --enable-lzma --enable-zlib --enable-gmp --enable-libvidstab --enable-libvorbis --enable-libvo-amrwbenc --enable-libmysofa --enable-libspeex --enable-libxvid --enable-libaom --enable-libmfx --enable-amf --enable-ffnvcodec --enable-cuvid --enable-d3d11va --enable-nvenc --enable-nvdec --enable-dxva2 --enable-avisynth --enable-libopenmpt libavutil 56. 31.100 / 56. 31.100 libavcodec 58. 54.100 / 58. 54.100 libavformat 58. 29.100 / 58. 29.100 libavdevice 58. 8.100 / 58. 8.100 libavfilter 7. 57.100 / 7. 57.100 libswscale 5. 5.100 / 5. 5.100 libswresample 3. 5.100 / 3. 5.100 libpostproc 55. 5.100 / 55. 5.100 Input #0, mov,mp4,m4a,3gp,3g2,mj2, from 'input1.mp4': Metadata: major_brand : isom minor_version : 512 compatible_brands: isomiso2avc1mp41 encoder : Lavf57.71.100 Duration: 00:00:24.97, start: 0.000000, bitrate: 773 kb/s Stream #0:0(und): Video: h264 (High) (avc1 / 0x31637661), yuv420p, 412x480, 701 kb/s, 30 fps, 30 tbr, 90k tbn, 60 tbc (default) Metadata: handler_name : VideoHandler Stream #0:1(und): Audio: aac (LC) (mp4a / 0x6134706D), 44100 Hz, stereo, fltp, 64 kb/s (default) Metadata: handler_name : SoundHandler Output #0, mpegts, to 'intermediate1.ts': Metadata: major_brand : isom minor_version : 512 compatible_brands: isomiso2avc1mp41 encoder : Lavf58.29.100 Stream #0:0(und): Video: h264 (High) (avc1 / 0x31637661), yuv420p, 412x480, q=2-31, 701 kb/s, 30 fps, 30 tbr, 90k tbn, 90k tbc (default) Metadata: handler_name : VideoHandler Stream #0:1(und): Audio: aac (LC) (mp4a / 0x6134706D), 44100 Hz, stereo, fltp, 64 kb/s (default) Metadata: handler_name : SoundHandler Stream mapping: Stream #0:0 -> #0:0 (copy) Stream #0:1 -> #0:1 (copy) Press [q] to stop, [?] for help frame= 749 fps=0.0 q=-1.0 Lsize= 2612kB time=00:00:24.93 bitrate= 858.1kbits/s speed=2.77e+03x video:2138kB audio:196kB subtitle:0kB other streams:0kB global headers:0kB muxing overhead: 11.945644% C:\Users\User\Videos\Apex Legends\_internal\ffmpeg>ffmpeg -i input2.mp4 -c copy -bsf:v h264_mp4toannexb -f mpegts intermediate2.ts ffmpeg version 4.2.1 Copyright (c) 2000-2019 the FFmpeg developers built with gcc 9.1.1 (GCC) 20190807 configuration: --enable-gpl --enable-version3 --enable-sdl2 --enable-fontconfig --enable-gnutls --enable-iconv --enable-libass --enable-libdav1d --enable-libbluray --enable-libfreetype --enable-libmp3lame --enable-libopencore-amrnb --enable-libopencore-amrwb --enable-libopenjpeg --enable-libopus --enable-libshine --enable-libsnappy --enable-libsoxr --enable-libtheora --enable-libtwolame --enable-libvpx --enable-libwavpack --enable-libwebp --enable-libx264 --enable-libx265 --enable-libxml2 --enable-libzimg --enable-lzma --enable-zlib --enable-gmp --enable-libvidstab --enable-libvorbis --enable-libvo-amrwbenc --enable-libmysofa --enable-libspeex --enable-libxvid --enable-libaom --enable-libmfx --enable-amf --enable-ffnvcodec --enable-cuvid --enable-d3d11va --enable-nvenc --enable-nvdec --enable-dxva2 --enable-avisynth --enable-libopenmpt libavutil 56. 31.100 / 56. 31.100 libavcodec 58. 54.100 / 58. 54.100 libavformat 58. 29.100 / 58. 29.100 libavdevice 58. 8.100 / 58. 8.100 libavfilter 7. 57.100 / 7. 57.100 libswscale 5. 5.100 / 5. 5.100 libswresample 3. 5.100 / 3. 5.100 libpostproc 55. 5.100 / 55. 5.100 Input #0, mov,mp4,m4a,3gp,3g2,mj2, from 'input2.mp4': Metadata: major_brand : isom minor_version : 512 compatible_brands: isomiso2avc1mp41 encoder : Lavf57.71.100 Duration: 00:00:28.53, start: 0.000000, bitrate: 323 kb/s Stream #0:0(und): Video: h264 (Constrained Baseline) (avc1 / 0x31637661), yuv420p, 424x240, 283 kb/s, 30 fps, 30 tbr, 90k tbn, 60 tbc (default) Metadata: handler_name : VideoHandler Stream #0:1(und): Audio: aac (LC) (mp4a / 0x6134706D), 44100 Hz, stereo, fltp, 32 kb/s (default) Metadata: handler_name : SoundHandler Output #0, mpegts, to 'intermediate2.ts': Metadata: major_brand : isom minor_version : 512 compatible_brands: isomiso2avc1mp41 encoder : Lavf58.29.100 Stream #0:0(und): Video: h264 (Constrained Baseline) (avc1 / 0x31637661), yuv420p, 424x240, q=2-31, 283 kb/s, 30 fps, 30 tbr, 90k tbn, 90k tbc (default) Metadata: handler_name : VideoHandler Stream #0:1(und): Audio: aac (LC) (mp4a / 0x6134706D), 44100 Hz, stereo, fltp, 32 kb/s (default) Metadata: handler_name : SoundHandler Stream mapping: Stream #0:0 -> #0:0 (copy) Stream #0:1 -> #0:1 (copy) Press [q] to stop, [?] for help frame= 856 fps=0.0 q=-1.0 Lsize= 1292kB time=00:00:28.50 bitrate= 371.3kbits/s speed=4.07e+03x video:987kB audio:112kB subtitle:0kB other streams:0kB global headers:0kB muxing overhead: 17.475477% C:\Users\User\Videos\Apex Legends\_internal\ffmpeg>ffmpeg -i "concat:intermediate1.ts|intermediate2.ts|intermediate3.ts|intermediate4.ts" -c copy -bsf:a aac_adtstoasc output.mp4 ffmpeg version 4.2.1 Copyright (c) 2000-2019 the FFmpeg developers built with gcc 9.1.1 (GCC) 20190807 configuration: --enable-gpl --enable-version3 --enable-sdl2 --enable-fontconfig --enable-gnutls --enable-iconv --enable-libass --enable-libdav1d --enable-libbluray --enable-libfreetype --enable-libmp3lame --enable-libopencore-amrnb --enable-libopencore-amrwb --enable-libopenjpeg --enable-libopus --enable-libshine --enable-libsnappy --enable-libsoxr --enable-libtheora --enable-libtwolame --enable-libvpx --enable-libwavpack --enable-libwebp --enable-libx264 --enable-libx265 --enable-libxml2 --enable-libzimg --enable-lzma --enable-zlib --enable-gmp --enable-libvidstab --enable-libvorbis --enable-libvo-amrwbenc --enable-libmysofa --enable-libspeex --enable-libxvid --enable-libaom --enable-libmfx --enable-amf --enable-ffnvcodec --enable-cuvid --enable-d3d11va --enable-nvenc --enable-nvdec --enable-dxva2 --enable-avisynth --enable-libopenmpt libavutil 56. 31.100 / 56. 31.100 libavcodec 58. 54.100 / 58. 54.100 libavformat 58. 29.100 / 58. 29.100 libavdevice 58. 8.100 / 58. 8.100 libavfilter 7. 57.100 / 7. 57.100 libswscale 5. 5.100 / 5. 5.100 libswresample 3. 5.100 / 3. 5.100 libpostproc 55. 5.100 / 55. 5.100 concat:intermediate1.ts|intermediate2.ts|intermediate3.ts|intermediate4.ts: No such file or directory C:\Users\User\Videos\Apex Legends\_internal\ffmpeg>ffmpeg -i "concat:intermediate1.ts|intermediate2.ts" -c copy -bsf:a aac_adtstoasc output.mp4 ffmpeg version 4.2.1 Copyright (c) 2000-2019 the FFmpeg developers built with gcc 9.1.1 (GCC) 20190807 configuration: --enable-gpl --enable-version3 --enable-sdl2 --enable-fontconfig --enable-gnutls --enable-iconv --enable-libass --enable-libdav1d --enable-libbluray --enable-libfreetype --enable-libmp3lame --enable-libopencore-amrnb --enable-libopencore-amrwb --enable-libopenjpeg --enable-libopus --enable-libshine --enable-libsnappy --enable-libsoxr --enable-libtheora --enable-libtwolame --enable-libvpx --enable-libwavpack --enable-libwebp --enable-libx264 --enable-libx265 --enable-libxml2 --enable-libzimg --enable-lzma --enable-zlib --enable-gmp --enable-libvidstab --enable-libvorbis --enable-libvo-amrwbenc --enable-libmysofa --enable-libspeex --enable-libxvid --enable-libaom --enable-libmfx --enable-amf --enable-ffnvcodec --enable-cuvid --enable-d3d11va --enable-nvenc --enable-nvdec --enable-dxva2 --enable-avisynth --enable-libopenmpt libavutil 56. 31.100 / 56. 31.100 libavcodec 58. 54.100 / 58. 54.100 libavformat 58. 29.100 / 58. 29.100 libavdevice 58. 8.100 / 58. 8.100 libavfilter 7. 57.100 / 7. 57.100 libswscale 5. 5.100 / 5. 5.100 libswresample 3. 5.100 / 3. 5.100 libpostproc 55. 5.100 / 55. 5.100 Input #0, mpegts, from 'concat:intermediate1.ts|intermediate2.ts': Duration: 00:00:28.53, start: 1.400000, bitrate: 1120 kb/s Program 1 Metadata: service_name : Service01 service_provider: FFmpeg Stream #0:0[0x100]: Video: h264 (High) ([27][0][0][0] / 0x001B), yuv420p(progressive), 412x480, 30 fps, 30 tbr, 90k tbn, 60 tbc Stream #0:1[0x101](und): Audio: aac (LC) ([15][0][0][0] / 0x000F), 44100 Hz, stereo, fltp, 62 kb/s Output #0, mp4, to 'output.mp4': Metadata: encoder : Lavf58.29.100 Stream #0:0: Video: h264 (High) (avc1 / 0x31637661), yuv420p(progressive), 412x480, q=2-31, 30 fps, 30 tbr, 90k tbn, 90k tbc Stream #0:1(und): Audio: aac (LC) (mp4a / 0x6134706D), 44100 Hz, stereo, fltp, 62 kb/s Stream mapping: Stream #0:0 -> #0:0 (copy) Stream #0:1 -> #0:1 (copy) Press [q] to stop, [?] for help [mpegts @ 0000023f17078400] DTS 126000 < 2370000 out of order frame= 1605 fps=0.0 q=-1.0 Lsize= 3483kB time=00:00:53.46 bitrate= 533.7kbits/s speed=1.98e+03x video:3125kB audio:308kB subtitle:0kB other streams:0kB global headers:0kB muxing overhead: 1.450367% C:\Users\user\Videos\Apex Legends\_internal\ffmpeg>-report '-report' is not recognized as an internal or external command, operable program or batch file. C:\Users\user\Videos\Apex Legends\_internal\ffmpeg>report 'report' is not recognized as an internal or external command, operable program or batch file. C:\Users\user\Videos\Apex Legends\_internal\ffmpeg> 
submitted by lastpassdeletedmyalt to ffmpeg [link] [comments]


2021.09.20 03:53 crytoloover Impossible? Over 20% APY Staking Kadena KDA (With a Click of a Button)

submitted by crytoloover to coinmarketbag [link] [comments]


http://novahoff-kompleks.ru